Mr Peabody And Sherman 2014 1080p BRRip x264 YIFY-STYLE

Download Mr Peabody And Sherman 2014 1080p BRRip x264 YIFY-STYLE – Torrent

http://www.imdb.com/title/tt0864835/

General

Complete name : Mr Peabody And Sherman 2014 1080p BRRip x264 YIFY-STYLE.mp4

Format : MPEG-4

Format profile : Base Media

Codec ID : isom

File size : 2.03 GiB

Duration : 1h 32mn

Overall bit rate mode : Variable

Overall bit rate : 3 136 Kbps

Video

ID : 1

Format : AVC

Format/Info : Advanced Video Codec

Format profile : [email protected]/* */
Format settings, CABAC : Yes

Format settings, ReFrames : 3 frames

Codec ID : avc1

Codec ID/Info : Advanced Video Coding

Duration : 1h 32mn

Bit rate mode : Variable

Bit rate : 3 036 Kbps

Maximum bit rate : 40.0 Mbps

Width : 1 920 pixels

Height : 1 040 pixels

Display aspect ratio : 1.85:1

Frame rate mode : Constant

Frame rate : 23.976 fps

Color space : YUV

Chroma subsampling : 4:2:0

Bit depth : 8 bits

Scan type : Progressive

Bits/(Pixel*Frame) : 0.063

Stream size : 1.96 GiB (97%)

Writing library : x264 core 142 r2431 ac76440

Audio

ID : 2

Format : AAC

Format/Info : Advanced Audio Codec

Format profile : LC

Codec ID : 40

Duration : 1h 32mn

Bit rate mode : Variable

Bit rate : 96.0 Kbps

Maximum bit rate : 105 Kbps

Channel(s) : 2 channels

Channel positions : Front: L R

Sampling rate : 48.0 KHz

Compression mode : Lossy

Stream size : 63.5 MiB (3%)

Files:

  • Mr Peabody And Sherman 2014 1080p BRRip x264 YIFY-STYLE.mp4 (2.0 GB)

Code:

  • http://inferno.demonoid.ph:3389/announce
  • udp://coppersurfer.tk:6969/announce
  • udp://exodus.desync.com:6969
  • udp://open.demonii.com:1337/announce
  • udp://tracker.istole.it:80
  • udp://tracker.openbittorrent.com:80/announce
  • udp://tracker.publicbt.com:80
  • udp://tracker.publichd.eu:80/announce
  • udp://tracker.yify-torrents.com/announce

Torrent Download

Tagged with:

Related Articles

Leave a reply

Your email address will not be published. Required fields are marked *