Press "Enter" to skip to content

Download Ballavpur Ki Roopkatha 2017 Hindi Untouched 1080p WEBHD x264 AAC – Hon3yHD Torrent Hindi movies torrent 2017

Download Ballavpur Ki Roopkatha 2017 Hindi Untouched 1080p WEBHD x264 AAC – Hon3yHD Torrent Hindi movies torrent 2017

1C80F7FD5EB75191E1F836E7CED567F66F1AB146

Ballavpur Ki Roopkatha 2017 Hindi Untouched 1080p WEBHD x264 AAC – Hon3yHD

Format : Matroska

Format version : Version 4 / Version 2

File size : 5.29 GiB

Duration : 2 h 21 min

Overall bit rate : 5 360 kb/s

Movie name : Hon3yHD

Video

ID : 1

Format : AVC

Format/Info : Advanced Video Codec

Format profile : [email protected]
Format settings, CABAC : Yes

Format settings, ReFrames : 1 frame

Format settings, GOP : M=1, N=25

Codec ID : V_MPEG4/ISO/AVC

Duration : 2 h 21 min

Bit rate mode : Constant

Bit rate : 5 232 kb/s

Nominal bit rate : 6 000 kb/s

Width : 1 920 pixels

Height : 1 080 pixels

Display aspect ratio : 16:9

Frame rate mode : Constant

Frame rate : 25.000 FPS

Color space : YUV

Chroma subsampling : 4:2:0

Bit depth : 8 bits

Scan type : Progressive

Bits/(Pixel*Frame) : 0.101

Stream size : 5.17 GiB (98%)

Default : Yes

Forced : No

Audio

ID : 2

Format : AAC

Format/Info : Advanced Audio Codec

Format profile : LC

Codec ID : A_AAC

Duration : 2 h 21 min

Bit rate : 125 kb/s

Channel(s) : 2 channels

Channel positions : Front: L R

Sampling rate : 48.0 kHz

Frame rate : 46.875 FPS (1024 spf)

Compression mode : Lossy

Stream size : 127 MiB (2%)

Language : Hindi

Default : Yes

Forced : No

http://www.hdsector.com/

Files:

Ballavpur Ki Roopkatha 2017 Hindi Untouched 1080p WEBHD x264 AAC – Hon3yHD

  • www.HDSector.com.mkv (5.3 GB)
  • www.HDSector.com.txt (0.0 KB)

There are currently no comments. Feel free to leave one 🙂

Code:

  • udp://tracker.coppersurfer.tk:6969/announce
  • udp://tracker.coppersurfer.tk:80/announce
  • udp://tracker.coppersurfer.tk:6969
  • udp://tracker.ilibr.org:6969/announce
  • udp://tracker.ilibr.org:80/announce
  • udp://tracker.opentrackr.org:1337/announce
  • udp://zer0day.to:1337/announce
  • udp://tracker.zer0day.to:1337/announce
  • udp://p4p.arenabg.com:1337/announce
  • udp://p4p.arenabg.ch:1337/announce
  • udp://tracker.leechers-paradise.org:6969/announce
  • udp://explodie.org:6969/announce
  • udp://9.rarbg.to:2710/announce
  • udp://eddie4.nl:6969/announce
  • udp://9.rarbg.to:2770/announce

Be First to Comment

Leave a Reply

Your email address will not be published. Required fields are marked *